#TITLE:グリグリ;
#SUBTITLE:- Green Green TV Opening;
#ARTIST:ひろみ さと;
#TITLETRANSLIT:GURI GURI;
#SUBTITLETRANSLIT:;
#ARTISTTRANSLIT:Hiromi Sato;
#CREDIT:Kreton & Lisek Collaboration;
#BANNER:Guri Guri.png;
#BACKGROUND:Guri Guri-bg.png;
#LYRICSPATH:Guri Guri.lrc;
#CDTITLE:CDTitle.png;
#MUSIC:Guri Guri.ogg;
#OFFSET:-0.495;
#SAMPLESTART:66.142;
#SAMPLELENGTH:12.000;
#SELECTABLE:YES;
#BPMS:0.000=188.100;
#STOPS:;
#BGCHANGES:0.000=Guri Guri.avi=1.000=0=0=1,
99999=-nosongbg-=1.000=0=0=0 // don't automatically add -songbackground-
;
// cache tags:
#FIRSTBEAT:0.000;
#LASTBEAT:310.000;
#SONGFILENAME:songs/Otaku's Dream 3rd Anime Mix/[Kreton] Guri Guri - Green Green OP/Guri Guri.sm;
#HASMUSIC:1;
#HASBANNER:1;
#MUSICLENGTH:99.892;
// end cache tags

//---------------dance-single - Lisek----------------
#NOTES:
     dance-single:
     Lisek:
     Hard:
     9:
     0.754,0.737,0.420,0.070,0.085,478.000,42.000,7.000,0.000,1.000:
1000
0001
1000
0001
1000
0001
1000
0001
,
1000
0001
1000
0001
1000
0000
0000
0000
,
0010
0100
0010
0100
0010
0100
0010
0100
,
0010
0100
0010
0100
0010
0000
0000
0000
,
1000
0001
1000
0001
1000
0001
1000
0001
,
1000
0001
0010
0100
0010
0001
0010
0000
,
0100
0010
0001
0100
0010
0001
0010
0000
,
0012
0000
1203
0000
,
0310
0010
0010
0001
1000
0001
0010
0010
,
0010
1000
0001
1000
0100
1000
0100
0010
,
0100
0001
0010
0100
0001
0010
1000
0100
,
1000
0100
0010
0001
0010
0001
0010
0100
,
1000
0100
0010
0001
0010
0100
1000
0100
,
0010
0001
0010
0000
1100
0000
0011
0000
,
0110
0000
0100
0010
0100
0010
0100
0010
,
0100
0010
0010
0100
,
1000
0100
1000
0100
0010
0100
0010
0001
,
0020
0000
0000
0030
,
0000
0000
0000
0000
0001
0001
0010
0010
,
0000
0000
0000
0000
0000
0000
1000
1000
,
0100
0100
0000
0000
0000
0000
0000
0000
,
1000
0001
1000
0000
0010
0000
0000
0000
0001
1000
0001
0000
0010
0000
0010
0000
,
1000
1000
0100
0100
0010
0100
0010
0001
,
0010
0100
0010
0001
0010
0100
1000
0100
,
0010
0100
0010
0000
0000
0000
0000
0000
,
0001
1000
0001
0000
0010
0000
0000
0000
1000
0001
0100
0000
0010
0000
0000
0000
,
1000
0100
0010
0100
1000
0100
0010
0100
,
1000
0100
0010
0001
0010
0100
0010
0000
,
0010
0010
0000
0000
,
0001
1000
0001
0000
0010
0000
0000
0000
1000
0001
1000
0000
0100
0000
0000
0000
,
1000
0100
0010
0100
0010
0001
0010
0001
,
1000
0100
1000
0100
0010
0100
0010
0001
,
0010
0001
0010
0000
0000
0000
0000
0000
,
0001
1000
0001
0000
0100
0000
0000
0000
1000
0001
0100
0000
0010
0000
0000
0000
,
1000
0000
1000
0000
0100
0010
0001
0010
,
0100
0010
1000
0100
,
0010
0100
0010
0000
0010
0000
0010
0000
0010
0000
0010
0000
0010
0000
0000
0000
,
0010
0100
0010
0000
0010
0000
0010
0000
0010
0000
0010
0000
0010
0000
0000
0000
,
1000
0000
0100
0000
0010
0001
0010
0100
,
1000
0010
0100
0010
,
0010
0100
0010
0000
0000
0000
0010
0000
0001
0000
0000
0000
0001
0010
0001
0010
,
0000
0001
0001
0001
0001
0000
0000
0000
,
1000
0001
1000
0001
1000
0001
0010
0100
,
0010
0001
0010
0100
0000
0001
0010
0100
,
0010
0001
0010
0100
1000
0100
0010
0000
,
1100
0000
0000
0110
0000
0000
0011
0000
0000
0000
0000
0000
1100
0000
0000
0000
,
0110
0000
0001
1000
0010
0100
0001
1000
,
0010
0000
0100
0000
0001
0000
0000
0000
1100
0000
0000
0110
0000
0000
0000
0011
,
0000
1000
1000
1000
,
0100
0100
0100
0000
,
0010
0010
0010
0001
,
0001
0000
0001
0000
1000
0001
1000
0000
,
0110
0001
0110
0000
0110
1000
0110
0000
,
0100
1000
0010
0100
0010
0001
0010
0001
,
0100
1000
0100
0010
0001
0100
0010
0001
,
1000
0100
0010
0001
0010
0001
0010
0000
,
1000
0100
1000
0010
0001
0010
0100
0010
,
0001
0100
0010
1000
0100
0020
0000
0130
,
1100
0011
1100
0011
,
1100
0000
0011
0000
1100
0001
0010
0001
,
0110
1000
0110
0000
0110
0001
0110
0000
,
1000
0100
0010
0001
1000
0100
0010
0001
,
0001
1000
0010
0100
0001
1000
0010
0100
,
0001
1000
0010
0200
0000
0000
0310
0000
,
0001
1000
0010
0100
0001
1000
0010
0100
,
0100
0010
1000
0001
0100
0010
1000
0001
,
1010
0101
1010
0101
,
1010
0000
0000
0000
0101
0000
0000
0000
1010
0000
0000
0100
0010
0000
0100
0000
,
1000
1100
0011
0110
,
1100
0000
1001
1001
,
0110
0000
1000
0001
1000
0001
1000
0001
,
1000
0001
1000
0001
1000
0001
1000
0000
,
0100
0010
0100
0010
0100
0010
0100
0010
,
0100
0010
0100
0010
0100
0000
0000
0000
,
1000
0001
1000
0001
1000
0001
1000
0001
,
1000
0001
1000
0001
1000
0000
0000
0000
,
1000
0001
0100
0010
1000
0001
0100
0010
,
2000
0002
0000
0000
3003
0000
0000
0000
;

//---------------dance-single - Kreton----------------
#NOTES:
     dance-single:
     Kreton:
     Easy:
     4:
     0.343,0.501,0.120,0.000,0.000,228.000,12.000,0.000,0.000,0.000:
0100
0100
0100
0100
,
0100
0100
0100
0100
,
0010
0010
0010
0010
,
0010
0010
0010
0010
,
1000
1000
1000
1000
,
1000
1000
1000
1000
,
0001
0001
0001
0001
,
0001
0000
1001
0000
,
1000
0100
0010
0001
,
1000
0100
0010
0001
,
0001
0010
0100
1000
,
0001
0010
0100
1000
,
0001
1000
0001
1000
,
0001
1000
0100
0010
,
0100
0010
0100
0010
,
0100
0000
0001
1000
0000
0000
0100
0000
,
0010
0000
0100
0000
0010
0000
0010
0001
,
0000
0000
0000
0000
,
0000
0000
0010
0001
,
0010
0000
0000
1000
,
0100
1000
0000
0000
,
0000
0000
0000
0001
,
0010
0100
1000
0100
,
0010
0001
0010
0001
,
0010
0100
0000
0000
,
0000
0000
0000
1000
,
0100
0010
0001
0010
,
0100
0000
1000
0000
0001
0000
1000
0010
,
0000
1000
0000
0000
0000
0000
0000
0000
,
0000
0000
0000
0100
,
0010
0100
1000
0010
,
0100
0000
0001
0000
0010
0000
0100
0001
,
0000
0010
0000
0000
0000
0000
0000
0000
,
0000
0000
0000
0000
,
0000
0000
1000
0001
,
0100
0000
0010
0000
1000
0000
0100
0001
,
0000
0000
0000
0000
,
0000
0000
0000
0000
,
0000
0000
1000
0100
,
1000
0000
0001
0000
0010
0000
0001
0010
,
0000
0000
0000
0000
0000
1000
1000
1000
,
0000
0000
0000
0001
,
0010
0100
0010
1000
,
0001
0100
0010
0100
,
0001
0010
1000
0100
,
0001
0010
0100
1000
,
0100
0000
0000
0000
,
0000
0000
0001
0010
,
0100
0000
0000
0000
,
0000
0000
0000
0000
,
0000
0000
0000
0000
,
0000
0000
1001
0000
,
1001
0110
1001
0110
,
0100
0010
0100
0010
,
0100
0001
0010
0001
,
0010
1000
0000
0001
,
0100
0010
1000
0100
,
0010
0100
0010
0001
,
1000
0000
0000
0000
,
0000
0000
0000
0000
0000
1001
0000
0000
,
1001
0110
1001
0110
,
1000
0100
1000
0100
,
1000
0100
1000
0001
,
0010
0001
0010
0001
,
0010
0100
0010
0010
,
0100
0100
1000
1000
,
0001
0000
0000
0000
,
0000
0000
0000
1000
,
0001
0000
0000
0000
,
0000
0000
0100
1000
,
0010
0010
1000
1000
,
0100
0100
0001
0001
,
1000
1000
0100
0100
,
0010
0010
1000
1000
,
0100
0100
0001
0001
,
1000
1000
0100
0100
,
0010
0010
1000
0001
,
0110
0000
0000
0000
;

//---------------dance-single - Kreton----------------
#NOTES:
     dance-single:
     Kreton:
     Beginner:
     1:
     0.066,0.154,0.000,0.000,0.000,46.000,0.000,0.000,0.000,0.000:
1000
0000
0000
0000
,
0000
0000
0000
0000
,
1000
0000
0000
0000
,
0000
0000
0000
0000
,
0001
0000
0000
0000
,
0000
0000
0000
0000
,
0001
0000
0000
0000
,
0000
0000
0000
0000
,
1000
0000
0000
0000
,
0000
0000
0000
0000
,
0001
0000
0000
0000
,
0000
0000
0000
0000
,
0100
0000
0000
0000
,
0000
0000
0000
0000
,
0010
0000
0000
0000
,
0000
0000
0000
0000
,
1000
0000
0000
0000
,
0000
0000
0000
0000
,
0001
0000
0000
0000
,
0000
0000
0000
0000
,
1000
0000
0000
0000
,
0000
0000
0000
0000
,
0010
0000
0000
0000
,
0000
0000
0000
0000
,
0100
0000
0000
0000
,
0000
0000
0000
0000
,
0001
0000
0000
0000
,
0000
0000
0000
0000
,
0100
0000
0000
0000
,
0000
0000
0000
0000
,
1000
0000
0000
0000
,
0000
0000
0000
0000
,
0010
0000
0000
0000
,
0000
0000
0000
0000
,
0100
0000
0000
0000
,
0000
0000
0000
0000
,
1000
0000
0000
0000
,
0000
0000
0000
0000
,
0010
0000
0000
0000
,
0000
0000
0000
0000
,
0100
0000
0000
0000
,
0000
0000
0000
0000
,
0001
0000
0000
0000
,
0000
0000
0000
0000
,
1000
0000
0000
0000
,
0000
0000
0000
0000
,
0010
0000
0000
0000
,
0000
0000
0000
0000
,
0001
0000
0000
0000
,
0000
0000
0000
0000
,
0100
0000
0000
0000
,
0000
0000
0000
0000
,
0001
0000
0001
0000
,
0001
0000
0000
0000
,
0000
0000
0000
0000
,
1000
0000
0000
0000
,
0000
0000
0000
0000
,
0100
0000
0000
0000
,
0000
0000
0000
0000
,
0000
0000
0000
0000
,
1000
0000
1000
0000
,
1000
0000
0000
0000
,
0100
0000
0000
0000
,
0000
0000
0000
0000
,
0001
0000
0000
0000
,
0000
0000
0000
0000
,
0100
0000
0000
0000
,
0000
0000
0000
0000
,
0001
0000
0000
0000
,
0000
0000
0000
0000
,
0010
0000
0000
0000
,
1000
0000
0000
0000
,
0100
0000
0000
0000
,
0001
0000
0000
0000
,
1000
0000
0000
0000
,
0100
0000
0000
0000
,
0010
0000
0000
0000
,
1000
0000
0000
0000
;

//---------------dance-single - Kreton----------------
#NOTES:
     dance-single:
     Kreton:
     Medium:
     6:
     0.445,0.578,0.240,0.000,0.000,287.000,24.000,0.000,0.000,0.000:
1000
0100
0010
0001
,
0001
0000
0010
0000
0100
0000
1000
0100
,
1000
0100
0010
0001
,
0001
0000
0010
0000
0100
0000
1000
0001
,
1000
0100
0010
0001
,
0001
0000
0010
0000
0100
0000
1000
0010
,
1000
0000
0001
1000
0001
0000
0110
1001
,
0110
0000
1001
0000
,
1000
0001
1000
0001
,
1000
0000
0001
0000
1000
0000
0100
0010
,
0100
0100
0001
0100
,
0001
1000
0100
1000
,
0001
0100
0001
0100
,
0010
0000
0100
0000
0001
0000
1000
0100
,
0010
1000
0100
1000
,
0100
0000
0010
0001
0000
0000
1000
0000
,
0100
0000
0010
0000
0100
0000
0010
0100
,
0000
0000
0000
0000
,
1000
0000
0100
0000
0010
0000
0010
1000
,
0000
0100
0000
0010
0000
0100
0010
0001
,
0000
1000
0000
0000
0000
0000
0000
0000
,
0001
0001
0001
0000
0100
0100
0100
0000
,
1000
0000
0010
0000
0100
0000
0010
0001
,
0000
1000
0000
0100
0000
1000
0010
0100
,
0000
1000
0000
0000
0000
0000
0000
0000
,
1000
0100
0010
0000
0100
0010
0001
0000
,
1000
0100
1000
0010
1000
0100
1000
0010
,
1000
0100
1000
0010
1000
0100
0000
1000
,
0000
0001
0000
0000
0000
0000
0000
0000
,
1000
0001
1000
0000
0010
0100
0010
0000
,
0001
0010
0001
0100
0001
0010
0001
0100
,
0001
0010
0001
0100
0001
0010
0000
0001
,
0000
1000
0000
0000
0000
0000
0000
0000
,
1000
0100
1000
0000
0001
0010
0001
0000
,
0000
0000
1000
0100
,
0010
0000
0001
0000
0100
0000
1000
0100
,
0000
0000
0000
0000
,
0000
0000
0000
0000
,
0000
0000
0001
0010
,
0100
0000
0010
0000
0100
0000
0010
0100
,
0000
0000
0000
0000
0000
0001
1000
0000
,
0000
0000
0000
0000
0000
0000
1000
0100
,
0010
0100
0010
0100
,
0010
0001
0010
0000
1000
0100
1000
0000
,
0010
0000
0100
0000
0010
1000
0100
0000
,
0010
0000
0100
0001
0010
0000
1100
0000
,
0011
0000
0000
0000
,
0000
0000
1100
0110
,
0011
0000
0000
0000
,
0000
0000
0000
0000
,
0000
0000
0000
0000
,
0000
0000
1001
0000
,
0110
1001
0110
1001
,
0100
0000
0010
0000
0100
0000
1000
0001
,
0100
0000
0010
0000
0100
0000
0010
1000
,
0100
0001
0100
0010
,
1000
0100
1000
0100
,
1000
0100
0001
0000
0010
0000
0001
0000
,
0010
0000
0000
0000
,
0000
0000
0000
0000
0000
1001
0110
0000
,
1100
0011
1100
0011
,
1000
0000
0100
0000
0010
0000
0100
0010
,
0100
0000
0001
0000
0010
0000
0100
1000
,
0100
0010
0100
0010
,
1000
0001
0100
0010
,
0100
0010
0100
0000
1000
0000
0100
0000
,
0010
0000
0000
0000
,
0000
0000
0000
0000
0000
0000
0100
1000
,
0010
0000
0000
0000
,
0000
0000
0110
0110
,
1001
1000
1000
0001
,
0001
0100
0100
0010
,
0010
0001
0001
1000
,
1000
0010
0010
0100
,
0100
1000
1000
0001
,
0001
0100
0100
0010
,
0010
0100
0010
0100
,
1001
0000
0000
0000
;
